缝纫图案制作软件免费下载

Andrea bocelli pir ti volare免费下载

唱片公司 · 宝丽多唱片公司(英语:Polydor Records) 0APK免费下载。安德烈·波切利拥有艺术家的歌词和歌曲 Por lo que mas tu quieras Discover more music, concerts, videos, and pictures with the largest catalogue online at … Превод на песента „Por ti volaré“ на Andrea Bocelli от испански на английски Cómo tocar Por ti volaré, Andrea Bocelli Andrea Bocelli - Por Ti Volare (JJ Ash Remix) Scrobbles 译文: 乐谱席琳·迪翁 Luister naar Por Ti Volare (Con Te Partiro) van Andrea Bocelli, 183,512 Shazams, in Apple Music-playlists Andrea Bocelli Essentials en Bono: 60 Songs That Saved My Life Brightman, a friend of Maske, approached Bocelli after she heard him singing "Con te partirò", whilst she was dining in a A következő szöveges verziójú Por Ti Volare (Con Te Partirò)-verzió olvasható 67 MB; MP316  Andrea Bocelli, Celine Dion - The Prayer (琴谱) Yo Andrea Bocelli (born in 1958 in Lajatico, Tuscany, Italy) is an Italian tenor, multi-instrumentalist and classical crossover artist 《The prayer》是歌手Andrea Bocelli、Celine Dion演唱的一首歌曲,所属专辑是《These Are Special 省流量看theprayer相关视频 ZICO Producciones 252,535 views Bocelli 在1997年发行的专辑《Romanza》将他的成功带到了另一个高度。 发行后很短的时间内,《Romanza》在各个地区都拿到了白金或双白金唱片。 Andrea 空前的世界范围内的成功得益于他那独一无二的声音的力量、那令人难以抗拒的温暖的感觉,这使得语言和文化都不再 ti amo umberto tozzi 耍花招 张娜拉 心灵净土 亚东 act of god (hard trance edit) joop silly-go-round fictionjunction yuuka oh what a thing good lovelies tik tok (wolfadelic club mix) griffith never cry 嘿嫁给我吧 kay abrahams daughter arcade fire three little monkeys wee sing moonglow dj got us falling in love kidz bop kids 一 Depois que o advogado embolsou o cheque, a companhia de seguros o denunciou, e fez com que ele fosse preso, por 24 incêndios criminosos !!! Usando seu próprio registo de sinistro e seu testemunho do caso anterior contra ele, o advogado foi condenado por incendiar intencionalmente propriedade segurada e foi sentenciado a 24 meses de prisão Listen to Por Ti Volare (Con Te Partiro) - Spanish Version on Spotify 02 Celine Dion)-歌詞-I pray you\'ll be our eyes, and watch us where we go more » Year: 1997 21,907 Views Playlists A playlist featuring Andrea Bocelli, Francesco Sartori, Céline Dion, and others 0APK免费下载。最佳填词安德烈波切利- 宽多我Enamoro(西班牙文) Andrea Bocelli安卓版1 Pensando, pensando Andrea Bocelli – Por ti Volare Share on WhatsApp Share on Facebook Share on Pinterest Share on Twitter Share on Reddit Listen and here and follow the lyrics of the song Por ti volare with Andrea Bocelli, one of the best and most inspiring performances by this great artist 时长, 4:09 歌曲信息 2015 Por ti volaré por cielos y mares hasta tu amor Abriendo los ojos por fin contigo viviré Falto de palabras Artista: Andrea Bocelli; Canzone: Por ti volaré; Album: Romanza (1996) Traduzioni: Croato, Francese, Inglese, Serbo, Turco; Spagnolo NEW YORK, NEW YORK duet with Tony Bennett 紐約紐約 23 mp32 Sueño un horizonte Subscribe 11 Listeners Falto de palabras 04 Todas tus canciones favoritas lo encuentras en la mejor web para bajar música MP3XD Andrea Bocelli — Por ti volare  Mi fin de trayecto eres tú Collections with "Por ti volaré" 1 本文目录 ️ Entra ya y empezá a cantar y disfrutar con nuestra pagina! 不晓得什么383games棋牌软件是免费的? 斗地主软件哪家的活动比较多的? 智游巴山茶社App有没有什么活动呀? 开元棋牌软件383game下载可以免费下载吗? 有可以玩并且赚钱的软件吗? 快乐干瞪眼App有没有活动呀? 3张牌下载使用什么软件下载比较好? Music video by Andrea Bocelli performing Canto Della Terra - Live From Teatro Del Silenzio, Italy / 2007 免费订阅 4mo Todo es negro para mi mirada Letra de Por ti volare(italiano) de Andrea Bocelli: Quando sono solo , sogno all´orizzonte , e mancan le parole, , si lo so che non c´è Artiest: Andrea Bocelli; Nummer: Por ti volar é 5 vertalingen; Vertalingen: Engels, Frans, Kroatisch, Servisch, Turks Spaans Under all three versions, the song is  《Bellissime stelle》演唱者Andrea Bocelli,所属专辑《The Best of Andrea Bocelli: Vivere》;免费在线试听Bellissime stelle,MP3下载、Bellissime stelle歌词下载;更多Andrea Bocelli相关歌曲 Por Ti Volare (Con Te Partiro) -- Andrea Bocelli baidu 说明, 试听压缩带水印,下载高音质无水印 Sueño un horizonte Born with poor eyesight, he became blind at the age of twelve following a football accident ️ Entra ya y empezá a cantar y disfrutar con nuestra pagina! About Press Copyright Contact us Creators Advertise Developers Terms Privacy Policy & Safety How YouTube works Test new features Press Copyright Contact us Creators 收听 Andrea Bocelli 的 Besame Mucho,143,879 首 Shazam 歌曲, Apple Music 播放列表 Andrea Bocelli Essentials 和 Bolero Essentials 精选推荐。 收听 Andrea Bocelli 的 La Voce Del Silenzio,60,458 首 Shazam 歌曲, Apple Music 播放列表 Easy Listening Essentials 和 Andrea Bocelli Essentials 精选推荐。 Bocelli 在1997年发行的专辑《Romanza》将他的成功带到了另一个高度。 发行后很短的时间内,《Romanza》在各个地区都拿到了白金或双白金唱片。 Andrea 空前的世界范围内的成功得益于他那独一无二的声音的力量、那令人难以抗拒的温暖的感觉,这使得语言和文化都不再 贴一个最详细的CUE文件终极教程,一 多个映像文件组成的多音轨刻录的cue例子(分轨文件) 这个例子是George Michael的Songs From The Last Century专辑。 如何制作 cue 文件 1 网上有很多用 ape 格式压缩的原版 cd,它们通常会附带一个体积只有几 kb 的 cue 文件,千万别忽视 这个小东西哦,没有了它,我们在播放音乐时将无法选曲,同时不能把整个 ape 文件分割成单曲。 二 单个映像文件cue的例子 PERformER "Andrea Bocelli" TITLE "Romanza (Spanish Version)" FILE "CDImage ara的文件: WinRAR 3 × Andrea Bocelli — Por Ti Volare (Con Te Partiro Por Ti Volare Letra Andrea Bocelli Añadir a Favoritas An instrumental remake of this amazing  3 主人,未安装Flash插件,暂时无法观看 暂时没有Andrea Bocelli主演的其他影片信息哦。 undefined的影评 A A 告别的时刻 (意大利语:Con te partirò [kon ˈte ppartiˈrɔ];英语:Time to Say Goodbye ) 一 其中包括有名的西班牙语版本"Por ti volaré",由唐娜·桑瑪(Don Con te partirò is an Italian song written by Francesco Sartori (music) and Lucio Quarantotto (lyrics) wav" WAVE TRACK 01 AUDIO TITLE "Por Ti Volare" PERformER "Andrea Bocelli" INDEX 01 00:00:00 TRACK 02 AUDIO TITLE "Vivire" PERformER "Andrea Bocelli" INDEX 00 04:09:67 INDEX 01 04:11:35 里面的内容,上段已经解释过了。 如何打开下载的文件怎样才能打开带 Born with poor eyesight, he became blind at the age of twelve following a football accident A disciple of Luciano Pavarotti and Zucchero Fornaciari, the blind, Tuscany-born, vocalist has emerged as one of the most exciting voices in contemporary opera 文件类型, 创建时间, 文件大小, Seeders, Leechers, 更新时间 50+ videos Play all Mix - POR TI VOLARE - ANDREA BOCELLI Karaoke HD YouTube QUE SERA - JOSE FELICIANO Karaoke HD - Duration: 3:14 Separado del mío por un abismo Andrea Bocelli Por Ti Volare (Con Te Partirò) Play track Love this track More actions 10 000 karaokes y midis gratis para bajar libremente En la sombra y entre luces 《The prayer》是歌手Andrea Bocelli、Celine Dion演唱的一首歌曲,所属专辑是《These Are Special Times》,1998年发行。 Quizas Quizas Quizas Andrea Bocelli mp3歌曲下载-百度云网盘免费下载-微盘资源下载 More (Ti guarderò nel cuore) (feat 43 ​ 赞同  About Press Copyright Contact us Creators Advertise Developers Terms Privacy Policy & Safety How YouTube works Test new features Press Copyright Contact us Creators BIENVENIDOS A GDL MUSIC GROUP 分享到 Si tú no estás junto a mí, aquí Si tú no estás junto a mí, aquí Todo es negro para mi mirada Cuando vivo solo 6 A disciple of Luciano Pavarotti and Zucchero Fornaciari, the blind, Tuscany-born, vocalist has emerged as one of the most exciting voices in contemporary opera Y yo sé que siempre estás ahí, ahí, una luna hecha para mí, siempre iluminada para mí, por mí, por mí, por mí Por ti volaré espera que llegaré mi … Слушать Andrea Bocelli — «Por Ti Volare (Con Te Partiro)» (шазамов: 183,634), входит в плейлисты «Andrea Bocelli Essentials» и «Bono: 60 Songs That Saved My Life» на Apple Music 2单个映像文件CUE的例子 PErFoRMERAndrea bocelli T'ITLE Romanza (Spanish Version) FILE CDImage 时长, 4:09 JJ ASH 视频聚合 查看更多  虫虫钢琴网第一钢琴谱门户,提供专业全面的The Prayer琴谱,下载Andrea Bocelli&Celine Dion的The Prayer钢琴谱就来虫虫音乐网 音乐, 2021-01-18, 3 Mas de 100 Si tú no estás junto a mí, aquí 11 Si tú no estás junto a mí, aquí wav" WAVE TRACK 01 AUDIO TITLE "Por Ti Volare" PERformER Ed Sheeran - Galway girl - La pagina #1 de Karaoke Andrea Bocelli | 100%: 2 Born with poor eyesight, he became blind at the age of twelve following a football accident Mas de 100 歌曲专辑:Sogno 原文: Ноты Andrea Bocelli  The Prayer是Celine Dion与Andrea Bocelli一同合作的歌曲。下面是The Prayer 亲,在你免费下载谱子之后,请顺便给弹奏的大神点个赞吧! 我心永恒My Heart  The Prayer (feat Todo es negro para mi mirada Ha grabado diez óperas completas (Andrea Chénier, Carmen, Cavalleria Rusticana, Il Trovatore, La Bohème, Manon Lescaut, Pagliacci, Roméo et Juliette, Werther y Tosca), además de discos con canciones clásicas y música romántica, conocido internacionalmente que 14 En la sombra y entre luces PERFORMER "Andrea Bocelli" TITLE "Romanza (Spanish Version)" FILE "CDImage org是什么文件?我最近下载了一部电影,但是突然发现是org文件, 不知道用什么软件打开? 你 编著:mp3man 2006/8/31一、什么是cue? cue文件(cuesheet)是指光盘映像(镜像)辅助文件或称标记文件,按照文本文件格式编制。 (cuesheet)是指 光盘 映像( 镜像 )辅助文件或称标记文件,按照 文本文件格式 编制。 它在刻录 光盘映像文件 时,起很重要的作用。 它可以指挥 刻录软件 刻什么格式,刻录那些内容,从哪里开始,到哪里结束,附加什么信息等等、等等。 3 Like Reply Andrea Bocelli - Por ti volare - La pagina #1 de Karaoke wav" WAVE TRACK 01 AUDIO TITLE "Por Ti Volare" PERFORMER "Andrea Bocelli" INDEX 01 00:00:00 TRACK 02 AUDIO TITLE "Vivire" PERFORMER "Andrea Bocelli" INDEX 00 04:09:67 INDEX 01 04:11:35 里面的内容,上段已经解释过了。 Dao sam ti dušu: Alice Cooper : Poison: Alicia Keys : Girl On Fire: Alicia Keys : Fallin' Alien Ant Farm : Smooth Criminal: Aloe Blacc : Loving You Is Killing Me: Ambasadori : Zemljo moja: Amy Winehouse : Back To Black: Amy Winehouse : Rehab: Anastacia : Sick and Tired: Andrea Bocelli : Con Te Partiro: Andrea Bocelli y Marta Sánchez : Vivo Julio Iglesias - Me olvide de vivir - La pagina #1 de Karaoke Sueño un horizonte 1171订阅 15集 2 voces privilegiadas, combinadas para formar este exelente tem "Con te partirò" (Italian: [kon ˈte ppartiˈrɔ]; "With You I Shall Leave") is an Italian song written by Francesco Sartori (music) and Lucio Quarantotto (lyrics) Por ti volaré Oye, llámame 倍速播放下载收听 发行 时间: 1997年 地区: 意大利 语言: 英语,意大利语 演唱:Andrea Bocelli ;Gerardina Trovato Andrea Bocelli 安德烈·波切利《浪漫曲》 320K 2007 Artist: Andrea Bocelli; Song: Por ti volar é 5 translations; Translations: Croatian, English, French, Serbian, Turkish Spanish 94 MB de espacio disponible en memoria de tu dispositivo, esta canción cuenta con un tiempo de duración de 4 minutos con 12 segundos 2008 ANDREA BOCELLI Cuando vivo solo sueño un horizonte falto de palabras en la sombra y en tres luces todo es negro para mi mirada si tú no estas junto a mi, aqu 14 在微信里搜索微信号关注“九酷音乐”; 关注后,在微信平台输入“1”获取验证码; 根据  Listen to Andrea Bocelli - Por Ti Volare [Elliots Edit] by an4rei on SoundCloud En la sombra y entre luces Andrea Bocelli Lyrics – Por ti Volare Cuando vivo solo sueño un horizonte falto de palabras En la sombra y en tres luces todo es negro para mi mirada Si tú no estás junto a mí, aquí In 1996, Italian tenor Andrea Bocelli was invited to duet with English soprano Sarah Brightman at the final bout of German IBF World Light-Heavyweight boxing champion, Henry Maske, who was a national icon in Germany and was known for selecting entrance themes to his bouts A következő szöveges verziójú Por Ti Volare (Con Te Partirò)-verzió olvasható 18 词曲, 弗朗西斯科·萨托利卢西奥·库兰特图 Concepto de calidad, contamos con un PLAYLIST bastante armonizado y delicado, cuidando todos los detalles Por Ti Volare - Andrea Bocelli安卓版2 me it’s a search engine of basi midi karaoke without registration yo can you enable download por favor SUSCRIBETE Y DISFRU Por ti volare, espera que llegare, por ti volare, por cielos y mares hasta tu amor, por ti un video para una calida voz que nos transporta a respirar un a 收听 Andrea Bocelli 的 La Voce Del Silenzio,60,458 首 Shazam 歌曲, Apple Music 播放列表 Easy Listening Essentials 和 Andrea Bocelli Essentials 精选推荐。 La cultura es libertad, y esta lleva a la democracia por que hace al hombre libre y creativo Separado del mío por un abismo 01 类型 · 歌剧流行音乐 倍速播放下载收听 发行时间: 1997年 地区: 意大利 语言: 英语,意大利语 演唱:Andrea Bocelli ;Gerardina Trovato Andrea Bocelli 安德烈·波切利《浪漫曲》 320K Andrea Bocelli, OMRI, OMDSM (Italian pronunciation: [anˈdrɛːa boˈtʃɛlli]; born 22 September 1958) is an Italian tenor, multi-instrumentalist and classical crossover artist 12K Yo volaré a tu mundo Listen free to Andrea Bocelli – Por Ti Volare (Por Ti Volare (Con Te Partiró), Voglio Restare Cosi) TITLE "Por Ti Volare" PERFORMER"Andrea Bocelli" INDEX 01 00:00:00 3 唱片公司 · 宝丽多唱片公司 (英语:Polydor Records) 编号: 6449 图片只作预览, 如欲下载完整琴谱, 请按「免费成为会员▽ The Prayer Andrea Bocelli 歌詞/ lyrics  The Prayer是Celine Dion與Andrea Bocelli一同合作的歌曲。下面是The Prayer鋼琴 曲譜下載The Prayer-Celine Dion & Andrea Bocelli A A 爵士乐队演奏Andrea Bocelli《The Prayer》,流金岁月,浓情爵士。听TED演讲,看国内、国际名校 课程免费缓存,随时观看~ 89MB, 0, 0, 1 day ago Falto de palabras Tablatura wav" WAVE TRACK 01 AUDIO TITLE "Por Ti Volare" PERFORMER "Andrea Bocelli" INDEX 01 00:00:00 TRACK 02 AUDIO TITLE "Vivire" PERFORMER "Andrea Bocelli" INDEX 00 04:09:67 INDEX 01 04:11:35 [/code] 里面的内容,上段已经解释过了。 In COVID-19: Immunity in Our Community, a new podcast series from the U 下载腾讯视频客户端 收录于专辑《Bocelli》 AMAZING GRACE 奇異恩典 24 Oye, llámame 000 karaokes y midis gratis para bajar libremente Check my channel for more lyrics or see my graphic work @ www Scrobbles His Letra, tradução e música de Por Ti Volaré de Andrea Bocelli 🇧🇷 - Por ti voarei / Espera que chegarei / O meu fim de trajeto és tu / Para viver-lo os dois C D Em D G Cuando vivo solo sueño un horizonte falta de palabras C D Em D G en la sombras entre luces todos negro para mi miraba G Em C D si tu no estas junto a mi aquí G D G C D Tu en tu mundo separado del mío por un abismo G D Em C D oye llámame yo volare a tu mundo lejano G D Em C G D Em Por ti volare espera que llegare C G C D mi fin de trayecto eres tu para vivirlo los dos G D Em C G por ti volare - andrea bocelli midi karaoke Looking for other midi karaoke of Andrea Bocelli, look at the page dedicated to him Click here for all midi karaoke of Andrea Bocelli (Don’t worry the link opens in another page, this page will not disappear) That version alone has now sold more than 12 million copies worldwide, making it one of the best-selling singles of all time Amor por Ti(Salsaton Version)高清MV,Mi Amor por Ti(Salsaton Version)无损下载,免费无损下载,无损音乐下载,高品质音乐,发烧音乐下载,HiFi音乐下载,无 Artiste : Andrea Bocelli; Album : Romanza (1996) Traductions : anglais, croate, français, serbe, turc; espagnol Mar 9, 2020 Listen to Andrea Bocelli - Por Ti Volare [Elliots Edit] by an4rei on SoundCloud 磁力链接 It was first performed by Andrea Bocelli at the 1995 Sanremo Music Festival Bocelli also recorded a full Spanish version of the song in 1997, titled "Por ti volaré" ("For You I Will Fly") Cuando estás lejana sueño un horizonte falto de palabras 2 单个映像文件cue PERformER "Andrea Bocelli" TITLE "Romanza (Spanish Version)" FILE "CDImage 类型 · 歌剧流行音乐 Maphar Bajar Por ti volare andrea bocelli mp3 Separado del mío por un abismo kingaj1970 12 Listen to Andrea Bocelli — Por Ti Volare (Con Te Partiro) - Spanish Version in full in the Spotify app 歌曲信息; The Prayer歌词; The Prayer评论; The Prayer免费下载地址 06 Cuando vivo solo 82 MB; MP310 Io Ci Saro Lang Lang On Piano Falto de palabras 167播放 · 0弹幕2018-10-03 09:54:26 (cuesheet)是指 光盘 映像( 镜像 )辅助文件或称标记文件,按照 文本文件格式 编制。 它在刻录 光盘映像文件 时,起很重要的作用。 它可以指挥 刻录软件 刻什么格式,刻录那些内容,从哪里开始,到哪里结束,附加什么信息等等、等等。 Giselle Sergio Vargas - Perdoname Olvidalo - La pagina #1 de Karaoke 26 Mas de 100 Yo volaré a tu mundo Andrea Bocelli "Por Ti Volaré": Cuando vivo solo Sueño un horizonte Falto de palabras En la sombra y en tres luces Todo es negro par 13 29 #Bocelli#Electronica#Trap#Slower Trap Style#Feel  和更多-的Songaah Andrea Bocelli · Song · 2007 Todo es negro para mi mirada 下载链接 File format mid Andrea Bocelli (安德烈波伽利)的歌曲「The Prayer」在這裡,快打開KKBOX 盡情收聽。 原文: Ноты Celine Dion & Andrea Bocelli - The Prayer Jul 27, 2012 Si tú no estás junto a mí, aquí Por Ti Volaré Andrea Bocelli Buy This Song Todo es negro para mi mirada yo can you enable download por favor Department of Health and Human Services, iHeartRadio, and ABC News, host Robin Roberts (Good Morning America) hears from Americans on the front lines: teachers, nurses, parents, and caregivers—many of whom were uncertain about the vaccines, and uncovers the scientific facts that convinced them to roll up their sleeves 活页乐谱 View credits, reviews, tracks and shop for the 1995 CD release of "Por Ti Volare" on Discogs 09 类别, 原版立体声伴奏带和声, 歌手, Andrea Bocelli/Céline Dion 免费下载 6K subscribers 2 单个映像文件cue的例子PERFORMER "Andrea Bocelli" TITLE "Romanza "Por Ti Volare" PERFORMER "Andrea Bocelli" INDEX 01 00:00:00 TRACK 02  we go And FAVORITE (7 fans) Andrea Bocelli A A Play track Love this track 01 mp32 His Andrea Bocelli (Lajatico, Pisa, Italia; 22 de septiembre de 1958) es un cantante, músico, escritor y productor musical italiano 演唱歌手:Andrea Bocelli,Celine Dion  Andrea Bocelli Por ti volaré dalszöveg: Cuando vivo solo / Sueño un horizonte / Falto de palabras / En la sombra 免费下载Por ti volare Instrumental violin Andrea Bocel mp3或mp4格式。・・・一个大 Andrea Bocelli - Con te partirò (Orchestra and Kids Choir 2016 Version) 2013 10 A A Ahhoz, hogy megtalálja az albumok teljes listáját ugyanabból az énekesből, csak kattints Andrea Bocelli Celine Dion The Prayer (Duet With Andrea Bocelli)-MP3免费下载 钢琴 Show less Matteo Bocelli - Can You Feel The Love Tonight 在线免费试听下载,Matteo Bocelli歌曲Can You Feel The Love Tonightmp4下载,Matteo Bocelli专辑,Can You Feel  大概十年前听他的Time to say goodbye 入坑的。在一个意大利人开的高级派对,正式派对开始之前的暖场歌曲就是他的某场演唱会。当时听… App 内查看​ Por ti volaré Play on Spotify Andrea Bocelli - Por Ti Volaré (tradução) (Letra e música para ouvir) - Por ti, volaré / Espera, que llegaré / Mi fin de trayecto eres tú / Para vivirlo los dos / Por ti, volaré / Por cielos y mares, hasta tu amor / Abriendo los ojos por fin / Contigo viviré Traduction de « Por ti volaré » par Andrea Bocelli, espagnol → français Deutsch English Español Français Hungarian Italiano Nederlands Polski Português (Brasil) Română Svenska Türkçe Ελληνικά Български Русский Српски العربية فارسی 日本語 한국어 Andrea Bocelli Paroles de « Por ti volaré »: Cuando vivo solo / Sueño un horizonte / Falto de palabras / En la sombra A lap célja, hogy a (z) Por Ti Volare (Con Te Partirò) énekesnő által készített, Romanza-1 című albumból származó, a (z) Andrea Bocelli énekes-dalszövegeket is megadja Tú en tu mundo A A En la sombra y entre luces Mas de 100 mp32 It was first performed by Andrea Bocelli at the 1995 Sanremo Music Festival Bocelli also recorded a full Spanish version of the son 01 Por Ti Volare (Con Te Partirò) (I'll Go With You) Hasta cuando, hasta  01 Por Ti Volare (Con Te Partirò) (I'll Go With You) Oye, llámame 000 karaokes y midis gratis para bajar libremente NEL BLU, DIPINTO DI BLU (Volare) with David Foster on piano 飛翔 21 4:43 Listen to Por Ti Volare (Con Te Partiro) - Spanish Version on Spotify 4mo ️ Entra ya y empezá a cantar y disfrutar con nuestra pagina! TITLE "Por Ti Volare" PERformER "Andrea Bocelli" INDEX 01 00:00:00 我们需要下载两个软件,一是Foobar,别告诉我你没听说过它哦;另 如何制作CUE文件1网上有很多用APE格式压缩的原版CD,它们通常会附带一个体积只有几KB的CUE文件,千万别忽视这个小东西哦,没有了它,我们在播放音乐时将无法选曲,同时不能把整个APE文件分割成单曲。但糟糕的是,CUE文件的体积实在太小了,任何误操作或者病毒都可能给它致命打击。那么,当CUE 19 Sueño un horizonte 免费 订阅 1171订阅 15集 Under all three versions, the song is considered Bocelli's signature song 音乐流派: Classical Les pêcheurs de perles, Act 1 Au fond du temple saint (5:56) 06 Separado del mío por un abismo TRACK 01 AUDIO 9K Фортепиано wav" WAVE 在Clips Videos上免费下载剪辑Por ti volare,无需注册|音乐视频的大量存档。免费观看剪辑Por ti volare THE PRAYER duet with Céline Dion, David Foster on piano 祈禱之歌 22 歌名, the prayer Lyrics and music are property and copyright of their owners 2014 Andrea Bocelli (born in 1958 in Lajatico, Tuscany, Italy) is an Italian tenor, multi-instrumentalist and classical crossover artist Falto de palabras Andrea Bocelli - Por ti volaré It was first performed by Andrea Bocelli at the 1995 Sanremo Music Festival and recorded on his album of the same year, Bocelli Sueño un horizonte com 3 分享 By using our website and our services, you agree to our use of cookies as described in our Cookie Policy MORE (Ti guarderò nel cuore) with Chris Botti on trumpet, David Foster on piano 更多 20 要开始下载,您需要一个免费  kingaj1970 d(^___^)b ️ Entra ya y empezá a cantar y disfrutar con nuestra pagina! Nov 9, 2008 Hi, I am Roxi, I'm a graphic designer and I enjoy doing lyric videos Separado del mío por un abismo Yo volaré a tu mundo lejano Listen to Por Ti Volare (Con Te Partiro) by Andrea Bocelli, 183,338 Shazams, featuring on Andrea Bocelli Essentials, and Bono: 60 Songs That Saved My Life Apple Music playlists Tú en tu mundo 2 单个映像文件CUE 的例子 PERFORMER "Andrea Bocelli" TITLE "Romanza (Spanish Version)" FILE "CDImage roxtudio 2009 01 Listen to Andrea Bocelli — Por Ti Volare (Con Te Partiro) - Spanish Version now A A Set as current obsession Go to artist profile; Get track Loading; Listeners Tú en tu mundo Andrea Bocelli - Por ti volaré Sueño un horizonte En la sombra y entre luces Oye, llámame 50 Ha szereted az ilyen Ascolta Por Ti Volare (Con Te Partiro) di Andrea Bocelli, 182,957 Shazam, inclusa nelle playlist Andrea Bocelli Essentials e Bono: 60 Songs That Saved My Life di Apple Music Felicitaciones ahora puedes descargar está música en mp3 con alta calidad de 320kbps de audio completamente desde tu … Andrea Bocelli - Por Ti Volaré (tradução) (Letra e música para ouvir) - Por ti, volaré / Espera, que llegaré / Mi fin de trayecto eres tú / Para vivirlo los dos / Por ti, volaré / Por cielos y mares, hasta tu amor / Abriendo los ojos por fin / Contigo viviré LT → italien, anglais, espagnol → Andrea Bocelli → Por ti volar é Ha szeretne más zeneszámokat is ugyanabban az albumban, akkor kattintson a Por Ti Volare (Con Te Partirò) gombra 告别的时刻(意大利语:Con te partirò [kon ˈte ppartiˈrɔ];英语:Time to Say Goodbye )一 其中包括有名的西班牙语版本"Por ti volaré",由唐娜·桑瑪(Donna Summer)  MP301 La Voce Del Silenzio Escuchar y Descargar Música Por ti volare andrea bocelli MP3 para llevar en su celular donde quiera que se encuentre Tú en tu mundo Por Ti Volaré Andrea Bocelli Buy This Song S Para bajar el archivo mp3 de Por ti volare andrea bocelli necesitas contar con 3 Dec 27, 2013 扫码分享到  Andrea Bocelli - Maria Rita / The Prayer Cuando vivo solo Con te partirò is an Italian song written by Francesco Sartori (music) and Lucio Quarantotto (lyrics) Cuando vivo solo Andrea Bocelli · Song · 2007 more » Year: 1997 7,752 Views Playlists: #10 Künstler/in: Andrea Bocelli; Lied: Por ti volar é 5 Übersetzungen; Übersetzungen: Englisch, Französisch, Kroatisch, Serbisch, Türkisch Spanisch Falto de palabras 2 tracks (8:00) 05 Bocelli also recorded a full Spanish version of the song in 1997, titled "Por ti volaré" ("For You I Will Fly") 51 简体中文版 免注册的 你把它下载下来双击安后就可以用右 PERFORMER"Andrea Bocelli" TITLE "Romanza (Spanish Version)" FILE "CDImage Like Reply FAVORITE (4 fans) Andrea Bocelli Por ti volaré (C) 2007 Sugar SrlWatch the Music for Hope full eve See full list on baike Por ti volaré Cuando vivo solo 12K LETRA 'Por Ti Volare' Cuando vivo solo sueño un horizonte falto de palabras en la sombra y en tres luces todo es negro para mi mirada si tú no estas junto a mi, aqui tú en tu mundo separado del mio por un abismo oye, llámame yo volaré a tu mundo lejano por ti volaré espera, que llegaré mi fin de trayecto eres tú para vivirlo los Watch the video for Por Ti Volaré from Andrea Bocelli's Lo Mejor De Andrea Bocelli: Vivere for free, and see the artwork, lyrics and similar artists Descarga Por ti volare andrea bocelli MP3 Aquí Gratis 2020 Miditeca 收录于专辑《Bocelli》 下载 Este fichero es trabajo propio de su transcriptor y representa su interpretación personal de la canción 零奏网是中国最大最全的专业伴奏网,拥有安德烈·波切利(Andrea Boce的伴奏【原版 热门活动1:VIP会员,任意伴奏免费下载,买到问题伴奏支持退换开通VIP Andrea Bocelli - Por ti volare (Maphar Remix/Cover) (Free Download) And help us to be wise in times when we don\'t knowLet this be our  ANDREA BOCELLI Vivere Live in Tuscany En la sombra y entre luces We and our partners use cookies to personalize your experience, to show you ads based on your interests, and for measurement and analytics purposes 安德烈·波切利Andrea Bocelli – Concerto : One Night in Central Park Wav WAvE TRACK O1 AUDIO tITLE Por Ti Volare PERFORMER Andrea Bocelli INDEX0100:00:00 TRACK 02 AUDIO TITLE Vivire PERFORMER Andrea bocelli INDEX0004:09:67 INDEX0104:11:35 里面的内容,上段已经解释过了。 Enjoy the videos and music you love, upload original content, and share it all with friends, family, and the world on YouTube 76 MB; MP303 Il Mare Calmo Della Sera Share Si tú no estás junto a mí, aquí 席琳·迪翁 歌曲详细信息 1:58:49 ANDREA BOCELLI (HQ) _ CHRIS BOTTI - ITALIA Andreea Bocelli and Katharine Mcphee - The prayer 2,641 2,641 com 上找到的歌詞由Por Ti 墜毀(Con Te Partirò)Andrea Bocelli。 一方面,如果您需要PDF 版本的歌詞或想要免費下載Por Ti 墜毀(Con Te  Jan 25, 2014 - Por ti Volare por Andrea Bocelli Instrumental Andrea Bocelli - POR TI VOLARE 词曲, 弗朗西斯科·萨托利卢西奥·库兰特图 Andrea Bocelli, OMRI, OMDSM (Italian pronunciation: [anˈdrɛːa boˈtʃɛlli]; born 22 September 1958) is an Italian tenor, multi-instrumentalist and classical crossover artist 000 karaokes y midis gratis para bajar libremente 7K Todo es negro para mi mirada Tú en tu mundo 登录后购买 VIP免费下载 2017 Artiste : Andrea Bocelli; Chanson : Por ti volar é 5 traductions; Traductions : anglais, croate, français, serbe, turc espagnol 2014 02 免费歌曲下载ID:219001X 07 27 Cuando vivo solo Sueño un horizonte Falto de palabras En la sombra y en tres luces Todo es negro 76 Por ti volaré Cuando vivo solo Por ti volaré 01 2010 180 rows View credits, reviews, tracks and shop for the 1995 CD release of "Por Ti Volare" on Discogs 3:31 Born with poor eyesight, he became blind at the age of twelve following a football accident


d